华氏451/华氏451度 Fahrenheit.451.2018.1080p.BluRay.x264.DTS-HD.MA.5.1-FGT 9.14GB

2018年9月23日21:55:38 发表评论 575 views

华氏451/华氏451度 Fahrenheit.451.2018.1080p.BluRay.x264.DTS-HD.MA.5.1-FGT 9.14GB

◎译  名 华氏451/华氏451度
◎片  名 Fahrenheit 451
◎年  代 2018
◎产  地 美国
◎类  别 剧情/科幻
◎语  言 英语
◎上映日期 2018-05-12(戛纳电影节)/2018-05-19(美国)
◎IMDb评分 4.9/10 from 10,383 users
◎IMDb链接 http://www.imdb.com/title/tt0360556/
◎豆瓣评分 5.2/10 from 1,782 users
◎豆瓣链接 https://movie.douban.com/subject/27026132/
◎片  长 100分钟
◎导  演 拉敏·巴哈尼 Ramin Bahrani
◎主  演 迈克尔·B·乔丹 Michael B. Jordan
迈克尔·珊农 Michael Shannon
梅寇·阮 Mayko Nguyen
迪伦·泰勒 Dylan Taylor
Saad Siddiqui
索菲亚·波多拉 Sofia Boutella
德鲁·尼尔森 Drew Nelson
雷欧·巴奈扎 Raoul Bhaneja
凯尔·杜拉 Keir Dullea
乔安妮·博兰德 Joanne Boland
林恩·格里芬 Lynne Griffin
马丁·唐文 Martin Donovan
乔·平格 Joe Pingue
David Tompa

◎简  介

科幻大师雷·布拉德伯雷的经典小说《华氏451》(Fahrenheit 451)将被HBO拍成电视电影,这不是该书第一次拍电影了,这次是一个当代美国的改编版。迈克尔·B·乔丹和迈克尔·珊农主演,故事设定在一个不允许人有自由思想的独裁世界,统治者焚烧一切图书,消防员的工作 也并非灭火,而是焚书。华氏451度就是纸的燃点(当然这个数字只是一个典故)。
乔丹饰男主Montag,一个年轻的消防员,和很多反乌托邦小说的主人公一样,本来麻木愚昧的他经历了“觉醒”,并因此与曾经的导师——消防队队长比蒂(珊农饰)反目。该片由拉敏·巴哈尼(《99个家》《推手推车的男人》)导演,他和阿米尔·纳德瑞一起写剧本。

◎获奖情况

第70届黄金时段艾美奖 (2018)
迷你剧/电视电影 最佳电视电影(提名)
Video
ID : 1
Format : AVC
Format/Info : Advanced Video Codec
Format profile : [email protected]
Format settings : CABAC / 4 Ref Frames
Format settings, CABAC : Yes
Format settings, ReFrames : 4 frames
Codec ID : V_MPEG4/ISO/AVC
Duration : 1 h 40 min
Bit rate : 9 407 kb/s
Width : 1 920 pixels
Height : 1 080 pixels
Display aspect ratio : 16:9
Frame rate mode : Constant
Frame rate : 23.976 FPS
Color space : YUV
Chroma subsampling : 4:2:0
Bit depth : 8 bits
Scan type : Progressive
Bits/(Pixel*Frame) : 0.189
Stream size : 6.59 GiB (72%)
Title : Fahrenheit.451.2018.1080p.BluRay.x264.DTS-HD.MA.5.1-FGT
Writing library : x264 core 157 r2932 303c484
Encoding settings : cabac=1 / ref=4 / deblock=1:0:0 / analyse=0x3:0x133 / me=umh / subme=7 / psy=1 / psy_rd=1.00:0.00 / mixed_ref=1 / me_range=16 / chroma_me=1 / trellis=1 / 8x8dct=1 / cqm=0 / deadzone=21,11 / fast_pskip=0 / chroma_qp_offset=-2 / threads=30 / lookahead_threads=5 / sliced_threads=0 / nr=0 / decimate=1 / interlaced=0 / bluray_compat=0 / constrained_intra=0 / bframes=3 / b_pyramid=2 / b_adapt=1 / b_bias=0 / direct=1 / weightb=1 / open_gop=0 / weightp=2 / keyint=250 / keyint_min=23 / scenecut=40 / intra_refresh=0 / rc_lookahead=40 / rc=2pass / mbtree=1 / bitrate=9407 / ratetol=1.0 / qcomp=0.60 / qpmin=0 / qpmax=69 / qpstep=4 / cplxblur=20.0 / qblur=0.5 / ip_ratio=1.40 / aq=1:1.00
Language : English
Default : Yes
Forced : No
Audio
ID : 2
Format : DTS
Format/Info : Digital Theater Systems
Format profile : MA / Core
Codec ID : A_DTS
Duration : 1 h 40 min
Bit rate mode : Variable / Constant
Bit rate : 3 594 kb/s / 1 509 kb/s
Channel(s) : 6 channels
Channel positions : Front: L C R, Side: L R, LFE
Sampling rate : 48.0 kHz
Frame rate : 93.750 FPS (512 SPF)
Bit depth : 24 bits
Compression mode : Lossless / Lossy
Stream size : 2.52 GiB (28%)
Title : Fahrenheit.451.2018.1080p.BluRay.x264.DTS-HD.MA.5.1-FGT
Language : English
Default : Yes
Forced : No
Text #1
ID : 3
Format : UTF-8
Codec ID : S_TEXT/UTF8
Codec ID/Info : UTF-8 Plain Text
Duration : 1 h 31 min
Bit rate : 50 b/s
Count of elements : 974
Stream size : 33.8 KiB (0%)
Title : English-SRT
Language : English
Default : Yes
Forced : No
Text #2
ID : 4
Format : PGS
Muxing mode : zlib
Codec ID : S_HDMV/PGS
Codec ID/Info : Picture based subtitle format used on BDs/HD-DVDs
Duration : 1 h 33 min
Bit rate : 33.1 kb/s
Count of elements : 2096
Stream size : 22.3 MiB (0%)
Title : English-PGS
Language : English
Default : No
Forced : No
Text #3
ID : 5
Format : PGS
Muxing mode : zlib
Codec ID : S_HDMV/PGS
Codec ID/Info : Picture based subtitle format used on BDs/HD-DVDs
Duration : 1 h 40 min
Bit rate : 29.7 kb/s
Count of elements : 2278
Stream size : 21.3 MiB (0%)
Title : French-PGS
Language : French
Default : No
Forced : No
Text #4
ID : 6
Format : PGS
Muxing mode : zlib
Codec ID : S_HDMV/PGS
Codec ID/Info : Picture based subtitle format used on BDs/HD-DVDs
Duration : 1 h 34 min
Bit rate : 32.3 kb/s
Count of elements : 2184
Stream size : 21.9 MiB (0%)
Title : Spanish
Language : Spanish
Default : No
Forced : No
Text #5
ID : 7
Format : PGS
Muxing mode : zlib
Codec ID : S_HDMV/PGS
Codec ID/Info : Picture based subtitle format used on BDs/HD-DVDs
Duration : 51 min 19 s
Bit rate : 986 b/s
Count of elements : 26
Stream size : 371 KiB (0%)
Title : Spanish
Language : Spanish
Default : No
Forced : No
Menu #1
00:00:00.000 : en:Chapter 01
00:02:32.152 : en:Chapter 02
00:11:46.664 : en:Chapter 03
00:20:31.855 : en:Chapter 04
00:26:28.503 : en:Chapter 05
00:35:54.152 : en:Chapter 06
00:44:01.805 : en:Chapter 07
00:52:45.203 : en:Chapter 08
01:01:59.507 : en:Chapter 09
01:08:23.265 : en:Chapter 10
01:17:46.995 : en:Chapter 11
01:27:06.054 : en:Chapter 12
01:37:54.368 : en:Chapter 13
Menu #2
00:00:00.000 : en:00:00:00.000
00:02:32.152 : en:00:02:32.152
00:11:46.873 : en:00:11:46.873
00:20:31.856 : en:00:20:31.856
00:26:28.504 : en:00:26:28.504
00:35:54.152 : en:00:35:54.152
00:44:01.806 : en:00:44:01.806
00:52:45.204 : en:00:52:45.204
01:01:59.507 : en:01:01:59.507
01:08:23.266 : en:01:08:23.266
01:17:46.996 : en:01:17:46.996
01:27:06.054 : en:01:27:06.054
01:37:54.368 : en:01:37:54.368

华氏451/华氏451度 Fahrenheit.451.2018.1080p.BluRay.x264.DTS-HD.MA.5.1-FGT 9.14GBFahrenheit.451.2018.1080p.BluRay.x264.DTS-HD.MA.5.1-.torrent.zip


                                                             -------END-------
---------------------------------------------------------------------------------------------------------
  • 玲星影视公众号
  • 扫码关注呀
  • weinxin
  • 玲星影视公众号
  • 微信公众号扫一扫
  • weinxin
羽夜_薇儿

发表评论

:?: :razz: :sad: :evil: :!: :smile: :oops: :grin: :eek: :shock: :???: :cool: :lol: :mad: :twisted: :roll: :wink: :idea: :arrow: :neutral: :cry: :mrgreen: